Home / Strzelec wyborowy-Voroshilovskiy strelok (1999)[TVHDRip 1080p

Strzelec wyborowy-Voroshilovskiy strelok (1999)[TVHDRip 1080p

date added 1 year ago   
post views 145 views   
torrent id ID: 886

Torrent Description: This is a New Way to Download The Movie Strzelec wyborowy-Voroshilovskiy strelok (1999)[TVHDRip 1080p Movie Torrent in HD Quality. Strzelec wyborowy-Voroshilovskiy strelok (1999)[TVHDRip 1080p DVD Print, 1080p, 720p and Bluray. If you facing any problem Downloading Strzelec wyborowy-Voroshilovskiy strelok (1999)[TVHDRip 1080p Movie Torrent. Scroll Down to Get Download Link.

  • Category » Movies
  • Type » HD
  • Language » Russian
  • Total size » 7.02 GB
  • Uploaded By » alE13-alE13


http://www.filmweb.pl/film/Strzelec+wyborowy-1999-229126
http://www.imdb.com/title/tt0200267/

reżyseria: Stanislav Govorukhin
scenariusz: Stanislav Govorukhin,Yuri Polyakov,Aleksandr Borodyanskiy
gatunek: Dramat,Kryminał
produkcja: Rosja
premiera: 19-04-1999
muzyka: Vladimir Dashkevich
zdjęcia: Gennadi Engstrem
czas: 1h 34mn

opis:

A very typical post-Soviet era storyline. Three young men lured an innocent teenage girl to their
apartment, offered her a drink, intimidated then gang raped her. Local cops are incapable to undertake
an adequate action against the scoundrels - prevented by the superior chief of the local police (militia)
which is the dad of one the scumbags. The case is closed. The girl's grand-dad tired of endless
circumlocution decides to take revenge of his own.

Grupka młodych chłopaków zwabia nastoletnią dziewczynę do swojego mieszkania, oferują jej drinka,
po czym gwałcą. Lokalna policja nie podejmuje żadnych działań, by ich zatrzymać, gdyż szefem policji
jest ojciec jednego z gwałcicieli. Nie zostają im przedstawione zarzuty. Jednak dziadek dziewczyny
nie zamierza pogodzić się niesprawiedliwością, jaka spotkała jego wnuczkę. Postanawia wziąć sprawę
w swoje ręce i ukarać tych, którzy skrzywdzili jego wnuczkę.






obsada:

Mikhail Ulyanov, Anna Sinyakina, Aleksandr Porokhovshchikov

dane techniczne:

Voroshilovskiy Strelok (The Rifleman of the Voroshilov) (1999)-alE13.mkv
Format : Matroska
Format version : Version 4 / Version 2
File size : 6.95 GiB
Duration : 1h 34mn
Overall bit rate mode : Variable
Overall bit rate : 10.5 Mbps
Movie name : Voroshilovskiy Strelok (The Rifleman of the Voroshilov) (1999)-alE13
Encoded date : UTC 2016-03-31 05:44:57
Writing application : mkvmerge v8.1.0 ('Psychedelic Postcard') 64bit
Writing library : libebml v1.3.1 + libmatroska v1.4.2

Video
ID : 1
Format : AVC
Format/Info : Advanced Video Codec
Format profile : [email protected]
Format settings, CABAC : Yes
Format settings, ReFrames : 3 frames
Codec ID : V_MPEG4/ISO/AVC
Duration : 1h 34mn
Bit rate mode : Variable
Bit rate : 10.3 Mbps
Maximum bit rate : 20.0 Mbps
Width : 1 440 pixels
Height : 1 080 pixels
Display aspect ratio : 4:3
Frame rate mode : Constant
Frame rate : 25.000 fps
Standard : PAL
Color space : YUV
Chroma subsampling : 4:2:0
Bit depth : 8 bits
Scan type : Progressive
Bits/(Pixel*Frame) : 0.265
Stream size : 6.82 GiB (98%)
Title : Voroshilovskiy Strelok (The Rifleman of the Voroshilov) (1999)-alE13
Default : Yes
Forced : No
Color range : Limited
Color primaries : BT.709
Transfer characteristics : BT.709
Matrix coefficients : BT.709

Audio
ID : 2
Format : AC-3
Format/Info : Audio Coding 3
Mode extension : CM (complete main)
Format settings, Endianness : Big
Codec ID : A_AC3
Duration : 1h 34mn
Bit rate mode : Constant
Bit rate : 192 Kbps
Channel(s) : 2 channels
Channel positions : Front: L R
Sampling rate : 48.0 KHz
Frame rate : 31.250 fps (1536 spf)
Compression mode : Lossy
Stream size : 130 MiB (2%)
Title : Voroshilovskiy Strelok (The Rifleman of the Voroshilov) (1999)-alE13
Language : Russian
Default : Yes
Forced : No

Text #1
ID : 3
Format : UTF-8
Codec ID : S_TEXT/UTF8
Codec ID/Info : UTF-8 Plain Text
Duration : 1h 29mn
Bit rate : 48 bps
Count of elements : 929
Stream size : 31.8 KiB (0%)
Title : Voroshilovskiy Strelok (The Rifleman of the Voroshilov) (1999)-alE13
Language : Polish
Default : Yes
Forced : No

Text #2
ID : 4
Format : UTF-8
Codec ID : S_TEXT/UTF8
Codec ID/Info : UTF-8 Plain Text
Duration : 1h 33mn
Bit rate : 55 bps
Count of elements : 966
Stream size : 37.9 KiB (0%)
Title : Voroshilovskiy Strelok (The Rifleman of the Voroshilov) (1999)-alE13
Language : English
Default : No
Forced : No

DOWNLOAD LINK

Strzelec wyborowy-Voroshilovskiy strelok (1999)[TVHDRip 1080p Strzelec wyborowy-Voroshilovskiy strelok (1999)[TVHDRip 1080p


Latest Top Searches of peoples:

Download Strzelec wyborowy-Voroshilovskiy strelok (1999)[TVHDRip 1080p Full Movie Torrent HD Quality.

Torrent Strzelec wyborowy-Voroshilovskiy strelok (1999)[TVHDRip 1080p Download

Download Free Strzelec wyborowy-Voroshilovskiy strelok (1999)[TVHDRip 1080p Torrent

Download Strzelec wyborowy-Voroshilovskiy strelok (1999)[TVHDRip 1080p Torrent - Kickass Torrents.

Strzelec wyborowy-Voroshilovskiy strelok (1999)[TVHDRip 1080p Download Torrent - Extratorrent.

Strzelec wyborowy-Voroshilovskiy strelok (1999)[TVHDRip 1080p Downlaod - torrentz.in

Download Strzelec wyborowy-Voroshilovskiy strelok (1999)[TVHDRip 1080p Torrent - bitsnoop..

Torrent Strzelec wyborowy-Voroshilovskiy strelok (1999)[TVHDRip 1080p Download - Nyaa.se

Strzelec wyborowy-Voroshilovskiy strelok (1999)[TVHDRip 1080p HD Full Download Free 2017 - Welltorrent.com.



People also Search for:

  • • Download Strzelec wyborowy-Voroshilovskiy strelok (1999)[TVHDRip 1080p Torrent 1080p
  • • Torrent Strzelec wyborowy-Voroshilovskiy strelok (1999)[TVHDRip 1080p Download DVDRip
  • • Download Strzelec wyborowy-Voroshilovskiy strelok (1999)[TVHDRip 1080p Torrent 720p
  • • Strzelec wyborowy-Voroshilovskiy strelok (1999)[TVHDRip 1080p High Resolution Torrent Result
  • • Download Strzelec wyborowy-Voroshilovskiy strelok (1999)[TVHDRip 1080p Bluray Torrent
  • • Xvid Torrent Strzelec wyborowy-Voroshilovskiy strelok (1999)[TVHDRip 1080p Download
  • • Download Strzelec wyborowy-Voroshilovskiy strelok (1999)[TVHDRip 1080p Torrent Full HD
  • • Torrent Strzelec wyborowy-Voroshilovskiy strelok (1999)[TVHDRip 1080p HDRip Download
  • • Download Strzelec wyborowy-Voroshilovskiy strelok (1999)[TVHDRip 1080p Torrent Multi Language
  • • Strzelec wyborowy-Voroshilovskiy strelok (1999)[TVHDRip 1080p Download Multi-Subs Torrent


Tagged with:

Related Movies Torrents