Home / Patel for Sale 2016 Hindi 1080p WEB-DL H264 AAC2 0-DDR

Patel for Sale 2016 Hindi 1080p WEB-DL H264 AAC2 0-DDR

date added 7 months ago   
post views 75 views   
torrent id ID: 401089

Torrent Description: This is a New Way to Download The Movie Patel for Sale 2016 Hindi 1080p WEB-DL H264 AAC2 0-DDR Movie Torrent in HD Quality. Patel for Sale 2016 Hindi 1080p WEB-DL H264 AAC2 0-DDR DVD Print, 1080p, 720p and Bluray. If you facing any problem Downloading Patel for Sale 2016 Hindi 1080p WEB-DL H264 AAC2 0-DDR Movie Torrent. Scroll Down to Get Download Link.

  • Category : Movies
  • Type : HD
  • Language : Hindi
  • Total size : 2.7 GB
  • Uploaded By : SaM-SaM




~ Patel.for.Sale ~

~ Hindi ~

** 1080p / WEB-DL / H264 / AAC2.0 **






Code:


General
Complete name : Patel.for.Sale.2016.1080p.WEB-DL.H264.AAC2.0-DDR.mkv
Format : Matroska
Format version : Version 4 / Version 2
File size : 2.70 GiB
Duration : 2 h 2 min
Overall bit rate : 3 161 kb/s
Encoded date : UTC 2017-01-10 19:33:21
Writing application : mkvmerge v9.7.1 ('Pandemonium') 64bit
Writing library : libebml v1.3.4 + libmatroska v1.4.5

Video
ID : 1
Format : AVC
Format/Info : Advanced Video Codec
Format profile : [email protected]
Format settings, CABAC : Yes
Format settings, ReFrames : 4 frames
Codec ID : V_MPEG4/ISO/AVC
Duration : 2 h 2 min
Bit rate : 2 999 kb/s
Width : 1 920 pixels
Height : 1 080 pixels
Display aspect ratio : 16:9
Frame rate mode : Constant
Frame rate : 24.000 FPS
Color space : YUV
Chroma subsampling : 4:2:0
Bit depth : 8 bits
Scan type : Progressive
Bits/(Pixel*Frame) : 0.060
Stream size : 2.56 GiB (95%)
Default : Yes
Forced : No

Audio
ID : 2
Format : AAC
Format/Info : Advanced Audio Codec
Format profile : LC
Codec ID : A_AAC
Duration : 2 h 2 min
Bit rate : 160 kb/s
Channel(s) : 2 channels
Channel positions : Front: L R
Sampling rate : 44.1 kHz
Frame rate : 43.066 FPS (1024 spf)
Compression mode : Lossy
Stream size : 140 MiB (5%)
Default : Yes
Forced : No












A DDR Exclusive Release...


DOWNLOAD LINK

Patel for Sale 2016 Hindi 1080p WEB-DL H264 AAC2 0-DDR Patel for Sale 2016 Hindi 1080p WEB-DL H264 AAC2 0-DDR


Latest Top Searches of peoples:

Download Patel for Sale 2016 Hindi 1080p WEB-DL H264 AAC2 0-DDR Full Movie Torrent HD Quality.

Torrent Patel for Sale 2016 Hindi 1080p WEB-DL H264 AAC2 0-DDR Download

Download Free Patel for Sale 2016 Hindi 1080p WEB-DL H264 AAC2 0-DDR Torrent

Download Patel for Sale 2016 Hindi 1080p WEB-DL H264 AAC2 0-DDR Torrent - Kickass Torrents.

Patel for Sale 2016 Hindi 1080p WEB-DL H264 AAC2 0-DDR Download Torrent - Extratorrent.

Patel for Sale 2016 Hindi 1080p WEB-DL H264 AAC2 0-DDR Downlaod - torrentz.in

Download Patel for Sale 2016 Hindi 1080p WEB-DL H264 AAC2 0-DDR Torrent - bitsnoop..

Torrent Patel for Sale 2016 Hindi 1080p WEB-DL H264 AAC2 0-DDR Download - Nyaa.se

Patel for Sale 2016 Hindi 1080p WEB-DL H264 AAC2 0-DDR HD Full Download Free 2017 - Welltorrent.com.



People also Search for:

  • • Download Patel for Sale 2016 Hindi 1080p WEB-DL H264 AAC2 0-DDR Torrent 1080p
  • • Torrent Patel for Sale 2016 Hindi 1080p WEB-DL H264 AAC2 0-DDR Download DVDRip
  • • Download Patel for Sale 2016 Hindi 1080p WEB-DL H264 AAC2 0-DDR Torrent 720p
  • • Patel for Sale 2016 Hindi 1080p WEB-DL H264 AAC2 0-DDR High Resolution Torrent Result
  • • Download Patel for Sale 2016 Hindi 1080p WEB-DL H264 AAC2 0-DDR Bluray Torrent
  • • Xvid Torrent Patel for Sale 2016 Hindi 1080p WEB-DL H264 AAC2 0-DDR Download
  • • Download Patel for Sale 2016 Hindi 1080p WEB-DL H264 AAC2 0-DDR Torrent Full HD
  • • Torrent Patel for Sale 2016 Hindi 1080p WEB-DL H264 AAC2 0-DDR HDRip Download
  • • Download Patel for Sale 2016 Hindi 1080p WEB-DL H264 AAC2 0-DDR Torrent Multi Language
  • • Patel for Sale 2016 Hindi 1080p WEB-DL H264 AAC2 0-DDR Download Multi-Subs Torrent


Tagged with:

Related Movies Torrents