Home / Not Another Teen Movie 2001 HEVC-d3g [PRiME]

Not Another Teen Movie 2001 HEVC-d3g [PRiME]

date added 6 months ago   
post views 289331 views   
torrent id ID: 410290

Torrent Description: This is a New Way to Download The Movie Not Another Teen Movie 2001 HEVC-d3g [PRiME] Movie Torrent in HD Quality. Not Another Teen Movie 2001 HEVC-d3g [PRiME] DVD Print, 1080p, 720p and Bluray. If you facing any problem Downloading Not Another Teen Movie 2001 HEVC-d3g [PRiME] Movie Torrent. Scroll Down to Get Download Link.

  • Category : Movies
  • Type : Divx/Xvid
  • Language : English
  • Total size : 1.8 GB
  • Uploaded By : showstopper-showstopper


Not Another Teen Movie 2001 HEVC-d3g.[PRiME]

ImDb: http://www.imdb.com/title/tt0277371



Complete name : Not Another Teen Movie 2001 BluRay 1080p AC3 HEVC-d3g[PRiME].mkv
Format : Matroska
Format version : Version 4 / Version 2
File size : 1.76 GiB
Duration : 1 h 29 min
Overall bit rate : 2 828 kb/s
Movie name : Not Another Teen Movie 2001 BluRay 1080p AC3 HEVC-d3g
Encoded date : UTC 2017-02-26 15:31:28
Writing application : DVDFab 10.0.2.5
Writing library : libebml v1.3.4 + libmatroska v1.4.5

Video
ID : 1
Format : HEVC
Format/Info : High Efficiency Video Coding
Format profile : [email protected]@Main
Codec ID : V_MPEGH/ISO/HEVC
Duration : 1 h 28 min
Bit rate : 2 370 kb/s
Width : 1 920 pixels
Height : 1 036 pixels
Display aspect ratio : 1.85:1
Frame rate mode : Constant
Frame rate : 23.976 (24000/1001) FPS
Color space : YUV
Chroma subsampling : 4:2:0
Bit depth : 8 bits
Bits/(Pixel*Frame) : 0.050
Stream size : 1.47 GiB (84%)
Default : Yes
Forced : No

Audio
ID : 2
Format : AC-3
Format/Info : Audio Coding 3
Mode extension : CM (complete main)
Format settings, Endianness : Big
Codec ID : A_AC3
Duration : 1 h 29 min
Bit rate mode : Constant
Bit rate : 448 kb/s
Channel(s) : 6 channels
Channel positions : Front: L C R, Side: L R, LFE
Sampling rate : 48.0 kHz
Frame rate : 31.250 FPS (1536 spf)
Compression mode : Lossy
Stream size : 285 MiB (16%)
Language : English
Default : Yes
Forced : No

Text
ID : 3
Format : VobSub
Codec ID : S_VOBSUB
Codec ID/Info : Picture based subtitle format used on DVDs
Duration : 1 h 28 min
Bit rate : 8 432 b/s
Count of elements : 1006
Stream size : 5.35 MiB (0%)
Language : English
Default : No
Forced : No

Menu
00:00:00.000 : en:(01)00:00:00:000
00:10:03.603 : en:(02)00:10:03:603
00:20:03.202 : en:(03)00:20:03:202
00:30:03.802 : en:(04)00:30:03:802
00:40:04.402 : en:(05)00:40:04:402
00:50:05.002 : en:(06)00:50:05:002
01:00:05.602 : en:(07)01:00:05:602
01:10:07.203 : en:(08)01:10:07:203
01:20:07.803 : en:(09)01:20:07:803




Click Image To View Full Size


Click To View Screenshot
Click To View Screenshot
Click To View Screenshot

DOWNLOAD LINK

Not Another Teen Movie 2001 HEVC-d3g [PRiME] Not Another Teen Movie 2001 HEVC-d3g [PRiME]


Latest Top Searches of peoples:

Download Not Another Teen Movie 2001 HEVC-d3g [PRiME] Full Movie Torrent HD Quality.

Torrent Not Another Teen Movie 2001 HEVC-d3g [PRiME] Download

Download Free Not Another Teen Movie 2001 HEVC-d3g [PRiME] Torrent

Download Not Another Teen Movie 2001 HEVC-d3g [PRiME] Torrent - Kickass Torrents.

Not Another Teen Movie 2001 HEVC-d3g [PRiME] Download Torrent - Extratorrent.

Not Another Teen Movie 2001 HEVC-d3g [PRiME] Downlaod - torrentz.in

Download Not Another Teen Movie 2001 HEVC-d3g [PRiME] Torrent - bitsnoop..

Torrent Not Another Teen Movie 2001 HEVC-d3g [PRiME] Download - Nyaa.se

Not Another Teen Movie 2001 HEVC-d3g [PRiME] HD Full Download Free 2017 - Welltorrent.com.



People also Search for:

  • • Download Not Another Teen Movie 2001 HEVC-d3g [PRiME] Torrent 1080p
  • • Torrent Not Another Teen Movie 2001 HEVC-d3g [PRiME] Download DVDRip
  • • Download Not Another Teen Movie 2001 HEVC-d3g [PRiME] Torrent 720p
  • • Not Another Teen Movie 2001 HEVC-d3g [PRiME] High Resolution Torrent Result
  • • Download Not Another Teen Movie 2001 HEVC-d3g [PRiME] Bluray Torrent
  • • Xvid Torrent Not Another Teen Movie 2001 HEVC-d3g [PRiME] Download
  • • Download Not Another Teen Movie 2001 HEVC-d3g [PRiME] Torrent Full HD
  • • Torrent Not Another Teen Movie 2001 HEVC-d3g [PRiME] HDRip Download
  • • Download Not Another Teen Movie 2001 HEVC-d3g [PRiME] Torrent Multi Language
  • • Not Another Teen Movie 2001 HEVC-d3g [PRiME] Download Multi-Subs Torrent


Tagged with:

Related Movies Torrents