Home / Avengers (2012) BluRay 1080p x264 Multi Audio [Hindi-English-Telu

Avengers (2012) BluRay 1080p x264 Multi Audio [Hindi-English-Telu

date added 7 months ago   
post views 92 views   
torrent id ID: 400144

Torrent Description: This is a New Way to Download The Movie Avengers (2012) BluRay 1080p x264 Multi Audio [Hindi-English-Telu Movie Torrent in HD Quality. Avengers (2012) BluRay 1080p x264 Multi Audio [Hindi-English-Telu DVD Print, 1080p, 720p and Bluray. If you facing any problem Downloading Avengers (2012) BluRay 1080p x264 Multi Audio [Hindi-English-Telu Movie Torrent. Scroll Down to Get Download Link.

  • Category : Movies
  • Type : Dubs/Dual Audio
  • Language : Hindi
  • Total size : 6.1 GB
  • Uploaded By : goku1337-goku1337



Avengers (2012) BluRay 1080p x264 Multi Audio [Hindi-English-Telugu] DD 5.1 [Tamil- DD 2.0] ESub...Hon3y



Code:

General
Format                      : Matroska
Format version              : Version 4 / Version 2
File size                   : 6.10 GiB
Duration                    : 2 h 22 min
Overall bit rate            : 6 115 kb/s
Movie name                  : [email protected]

Video
Format                      : AVC
Format/Info                 : Advanced Video Codec
Format profile              : [email protected]
Format settings, CABAC      : Yes
Format settings, ReFrames   : 4 frames
Codec ID                    : V_MPEG4/ISO/AVC
Duration                    : 2 h 22 min
Bit rate                    : 4 236 kb/s
Width                       : 1 920 pixels
Height                      : 1 080 pixels
Display aspect ratio        : 16:9
Frame rate mode             : Constant
Frame rate                  : 23.976 (24000/1001) FPS
Color space                 : YUV
Chroma subsampling          : 4:2:0
Bit depth                   : 8 bits
Scan type                   : Progressive
Bits/(Pixel*Frame)          : 0.085
Stream size                 : 4.23 GiB (69%)
Title                       : [email protected]

Audio 1
Format                      : AC-3
Format/Info                 : Audio Coding 3
Mode extension              : CM (complete main)
Format settings, Endianness : Big
Codec ID                    : A_AC3
Duration                    : 2 h 22 min
Bit rate mode               : Constant
Bit rate                    : 640 kb/s
Channel(s)                  : 6 channels
Channel positions           : Front: L C R, Side: L R, LFE
Sampling rate               : 48.0 kHz
Frame rate                  : 31.250 FPS (1536 spf)
Bit depth                   : 16 bits
Compression mode            : Lossy
Stream size                 : 654 MiB (10%)
Title                       : [email protected]
Language                    : Hindi
Default                     : Yes
Forced                      : Yes

Audio 2
Format                      : AC-3
Format/Info                 : Audio Coding 3
Mode extension              : CM (complete main)
Format settings, Endianness : Big
Codec ID                    : A_AC3
Duration                    : 2 h 22 min
Bit rate mode               : Constant
Bit rate                    : 192 kb/s
Channel(s)                  : 2 channels
Channel positions           : Front: L R
Sampling rate               : 44.1 kHz
Frame rate                  : 28.711 FPS (1536 spf)
Bit depth                   : 16 bits
Compression mode            : Lossy
Stream size                 : 196 MiB (3%)
Title                       : [email protected]
Language                    : Tamil
Default                     : No

Audio 3
Format                      : AC-3
Format/Info                 : Audio Coding 3
Mode extension              : CM (complete main)
Format settings, Endianness : Big
Codec ID                    : A_AC3
Duration                    : 2 h 22 min
Bit rate mode               : Constant
Bit rate                    : 384 kb/s
Channel(s)                  : 6 channels
Channel positions           : Front: L C R, Side: L R, LFE
Sampling rate               : 48.0 kHz
Frame rate                  : 31.250 FPS (1536 spf)
Bit depth                   : 16 bits
Compression mode            : Lossy
Stream size                 : 393 MiB (6%)
Title                       : [email protected]
Language                    : Telugu
Default                     : No

Audio 4
Format                      : AC-3
Format/Info                 : Audio Coding 3
Mode extension              : CM (complete main)
Format settings, Endianness : Big
Codec ID                    : A_AC3
Duration                    : 2 h 22 min
Bit rate mode               : Constant
Bit rate                    : 640 kb/s
Channel(s)                  : 6 channels
Channel positions           : Front: L C R, Side: L R, LFE
Sampling rate               : 48.0 kHz
Frame rate                  : 31.250 FPS (1536 spf)
Bit depth                   : 16 bits
Compression mode            : Lossy
Stream size                 : 654 MiB (10%)
Title                       : [email protected]
Language                    : English
Default                     : No

Subtitle 1
Format                      : PGS
Muxing mode                 : zlib
Codec ID                    : S_HDMV/PGS
Codec ID/Info               : Picture based subtitle format used on BDs/HD-DVDs
Duration                    : 2 h 15 min
Bit rate                    : 10.2 kb/s
Count of elements           : 3506
Stream size                 : 9.91 MiB (0%)
Title                       : [email protected]
Language                    : English
Default                     : Yes
Forced                      : No

Chapters Menu
00:00:00.000                : en:00:00:00.000
00:08:02.315                : en:00:08:02.315
00:11:49.167                : en:00:11:49.167
00:15:18.751                : en:00:15:18.751
00:20:33.482                : en:00:20:33.482
00:23:04.258                : en:00:23:04.258
00:29:39.444                : en:00:29:39.444
00:37:23.992                : en:00:37:23.992
00:42:47.982                : en:00:42:47.982
00:50:22.269                : en:00:50:22.269
01:01:04.661                : en:01:01:04.661
01:14:05.107                : en:01:14:05.107
01:28:01.234                : en:01:28:01.234
01:38:20.561                : en:01:38:20.561
01:45:40.167                : en:01:45:40.167
01:51:15.085                : en:01:51:15.085
01:57:47.769                : en:01:57:47.769
02:04:38.680                : en:02:04:38.680
02:09:39.397                : en:02:09:39.397
02:13:10.691                : en:02:13:10.691


DOWNLOAD LINK

Avengers (2012) BluRay 1080p x264 Multi Audio [Hindi-English-Telu Avengers (2012) BluRay 1080p x264 Multi Audio [Hindi-English-Telu


Latest Top Searches of peoples:

Download Avengers (2012) BluRay 1080p x264 Multi Audio [Hindi-English-Telu Full Movie Torrent HD Quality.

Torrent Avengers (2012) BluRay 1080p x264 Multi Audio [Hindi-English-Telu Download

Download Free Avengers (2012) BluRay 1080p x264 Multi Audio [Hindi-English-Telu Torrent

Download Avengers (2012) BluRay 1080p x264 Multi Audio [Hindi-English-Telu Torrent - Kickass Torrents.

Avengers (2012) BluRay 1080p x264 Multi Audio [Hindi-English-Telu Download Torrent - Extratorrent.

Avengers (2012) BluRay 1080p x264 Multi Audio [Hindi-English-Telu Downlaod - torrentz.in

Download Avengers (2012) BluRay 1080p x264 Multi Audio [Hindi-English-Telu Torrent - bitsnoop..

Torrent Avengers (2012) BluRay 1080p x264 Multi Audio [Hindi-English-Telu Download - Nyaa.se

Avengers (2012) BluRay 1080p x264 Multi Audio [Hindi-English-Telu HD Full Download Free 2017 - Welltorrent.com.



People also Search for:

  • • Download Avengers (2012) BluRay 1080p x264 Multi Audio [Hindi-English-Telu Torrent 1080p
  • • Torrent Avengers (2012) BluRay 1080p x264 Multi Audio [Hindi-English-Telu Download DVDRip
  • • Download Avengers (2012) BluRay 1080p x264 Multi Audio [Hindi-English-Telu Torrent 720p
  • • Avengers (2012) BluRay 1080p x264 Multi Audio [Hindi-English-Telu High Resolution Torrent Result
  • • Download Avengers (2012) BluRay 1080p x264 Multi Audio [Hindi-English-Telu Bluray Torrent
  • • Xvid Torrent Avengers (2012) BluRay 1080p x264 Multi Audio [Hindi-English-Telu Download
  • • Download Avengers (2012) BluRay 1080p x264 Multi Audio [Hindi-English-Telu Torrent Full HD
  • • Torrent Avengers (2012) BluRay 1080p x264 Multi Audio [Hindi-English-Telu HDRip Download
  • • Download Avengers (2012) BluRay 1080p x264 Multi Audio [Hindi-English-Telu Torrent Multi Language
  • • Avengers (2012) BluRay 1080p x264 Multi Audio [Hindi-English-Telu Download Multi-Subs Torrent


Tagged with:

Related Movies Torrents